<?xml version="1.0" standalone="no"?>
<!DOCTYPE svg PUBLIC "-//W3C//DTD SVG 1.1//EN" "http://www.w3.org/Graphics/SVG/1.1/DTD/svg11.dtd">
<svg xmlns="http://www.w3.org/2000/svg">
<metadata>Generated by Fontastic.me</metadata>
<defs>
<font id="detiknetwork" horiz-adv-x="512">
<font-face font-family="detiknetwork" units-per-em="512" ascent="480" descent="-32"/>
<missing-glyph horiz-adv-x="512" />

<glyph glyph-name="home" unicode="&#99;" d="M434 250c0 0-35 40-36 41l-126 135c-4 4-10 7-15 7-6 0-11-3-15-7l-164-176c-5-4-4-12 0-17 4-5 12-5 18 0l16 18 0-149c0-12 9-21 21-21l71 0c11 0 21 9 21 21l0 75c0 18 14 32 32 32 18 0 32-15 32-32l0-76c0-11 9-21 21-21l70 0c11 0 21 9 21 21l0 147 13-14c5-5 13-5 19 0 5 4 6 12 1 16z m-57-145l-64 0 0 72c0 30-25 57-57 57-31 0-57-25-57-57l0-72-64 0 0 173 121 128 121-130c0 1 0-171 0-171z"/>
<glyph glyph-name="home-bg" unicode="&#100;" d="M434 250c0 0-35 40-36 41l-126 135c-4 4-10 7-15 7-6 0-11-3-15-7l-164-176c-5-4-4-12 0-17 4-5 12-5 18 0l16 18 0-149c0-12 9-21 21-21l71 0c11 0 21 9 21 21l0 75c0 18 14 32 32 32 18 0 32-15 32-32l0-76c0-11 9-21 21-21l70 0c11 0 21 9 21 21l0 147 13-14c5-5 13-5 19 0 5 4 6 12 1 16z"/>
<glyph glyph-name="chevron-right" unicode="&#101;" d="M162 412c-6 6-6 15 0 21 6 6 16 6 21 0l167-167c5-5 5-15 0-21l-167-166c-5-5-15-5-21 0-6 7-6 15 0 22l156 155z"/>
<glyph glyph-name="chevron-right-bg" unicode="&#102;" d="M334 438l-156 0c-57 0-104-46-104-104l0-156c0-57 46-104 104-104l156 0c57 0 104 46 104 104l0 156c0 56-48 104-104 104z m2-191l-122-125c-6-6-16-6-21 0-7 6-7 15 0 21l111 115-111 112c-7 5-7 15 0 20 5 7 15 7 21 0l122-121c6-6 6-15 0-22z"/>
<glyph glyph-name="chevron-left" unicode="&#103;" d="M350 412c6 6 6 15 0 21-6 6-16 6-21 0l-167-167c-5-5-5-15 0-21l167-167c5-5 15-5 21 0 6 7 6 16 0 22l-156 156z"/>
<glyph glyph-name="chevron-left-bg" unicode="&#104;" d="M74 334l0-156c0-58 47-104 104-104l156 0c58 0 104 47 104 104l0 156c0 58-47 104-104 104l-156 0c-56 0-104-48-104-104z m102-65l122 121c6 7 16 7 21 0 7-5 7-15 0-20l-110-112 111-115c6-6 6-15 0-21-6-6-15-6-21 0l-123 125c-6 7-6 16 0 22z"/>
<glyph glyph-name="arrow-right" unicode="&#105;" d="M301 114c-7-7-16-7-23 0-6 6-6 16 0 22l106 105-294 0c-9 0-16 6-16 16 0 9 7 15 16 15l294 0-105 105c-6 6-6 16 0 22 7 7 16 7 23 0l132-132c6-6 6-16 0-22z"/>
<glyph glyph-name="arrow-left" unicode="&#106;" d="M79 245c-6 6-6 16 0 22l132 132c7 7 16 7 23 0 6-6 6-16 0-22l-106-106 294 0c9 0 16-6 16-15 0-9-7-16-16-16l-294 0 105-105c6-6 6-16 0-22-7-7-16-7-23 0z"/>
<glyph glyph-name="chevron-up" unicode="&#107;" d="M100 163c-6-6-15-6-21 0-6 6-6 15 0 21l167 166c5 6 15 6 21 0l166-166c5-6 5-15 0-21-7-6-15-6-22 0l-155 155z"/>
<glyph glyph-name="chevron-up-bg" unicode="&#108;" d="M74 334l0-156c0-57 46-104 104-104l156 0c57 0 104 46 104 104l0 156c0 57-46 104-104 104l-156 0c-56 0-104-48-104-104z m191 2l125-122c6-6 6-16 0-21-6-7-15-7-21 0l-115 111-112-111c-5-7-15-7-20 0-7 5-7 15 0 21l121 122c6 6 15 6 22 0z"/>
<glyph glyph-name="chevron-down" unicode="&#109;" d="M411 350c6 6 15 6 21 0 6-6 6-16 0-21l-166-167c-6-5-16-5-22 0l-166 167c-5 5-5 15 0 21 7 6 16 6 22 0l155-156z"/>
<glyph glyph-name="chevron-down-bg" unicode="&#110;" d="M438 178l0 156c0 57-46 104-104 104l-156 0c-57 0-104-46-104-104l0-156c0-57 46-104 104-104l156 0c56 0 104 48 104 104z m-191-2l-125 122c-6 6-6 16 0 21 6 7 15 7 21 0l115-111 112 111c5 7 15 7 20 0 7-5 7-15 0-21l-121-122c-6-6-15-6-22 0z"/>
<glyph glyph-name="arrow-up" unicode="&#111;" d="M243 432c7 7 19 7 25 0l150-150c7-7 7-18 0-24-8-7-19-8-25 0l-120 120 0-285c0-10-8-18-18-18-10 0-17 8-17 18l0 285-119-120c-7-8-18-8-25 0-7 7-7 18 0 24z"/>
<glyph glyph-name="arrow-down" unicode="&#112;" d="M269 80c-7-7-19-7-25 0l-150 150c-8 7-8 18 0 24 7 8 18 8 24 0l120-120 0 285c0 10 8 18 18 18 10 0 18-8 18-18l0-285 119 120c7 7 18 7 25 0 7-8 7-19 0-25z"/>
<glyph glyph-name="search" unicode="&#113;" d="M432 105l-70 69c-4 4-8 6-13 5l-13 14c-5 5-11 5-17 0-5-5-5-11 0-17l14-14c0-4 1-9 5-13l69-70c3-3 8-5 13-5 5 0 10 1 11 5 8 8 8 19 1 26z m-125 289c-27 28-62 44-98 44-33 0-67-12-93-36-54-51-57-136-6-189 27-28 62-43 99-43 33 0 66 11 93 36 54 50 56 135 5 188z m-23-171c-21-20-48-29-75-29-31 0-59 12-79 34-21 21-31 49-30 78 1 28 14 56 34 76 21 20 48 29 76 29 30 0 58-12 79-34 41-43 39-112-5-154z m-69 5c0-7-6-13-13-13-7 0-12 6-12 13 0 7 5 13 12 13 7 0 13-6 13-13z"/>
<glyph glyph-name="search-bg" unicode="&#114;" d="M432 105l-70 69c-4 4-8 6-13 5l-13 14c-5 5-11 5-17 0-5-5-5-11 0-17l14-14c0-4 1-9 5-13l69-70c3-3 8-5 13-5 5 0 10 1 11 5 8 8 8 19 1 26z m-125 289c-27 28-62 44-98 44-33 0-67-12-93-36-54-51-57-136-6-189 27-28 62-43 99-43 33 0 66 11 93 36 54 50 56 135 5 188z m-105-180c-7 0-12 6-12 13 0 7 5 13 12 13 8 0 13-6 13-13 0-7-5-13-13-13z"/>
<glyph glyph-name="user" unicode="&#115;" d="M256 259c51 0 93 42 93 93 0 51-42 93-93 93-51 0-93-42-93-93 0-51 42-93 93-93z m0 161c38 0 68-30 68-68 0-38-30-68-68-68-38 0-68 30-68 68 0 38 30 68 68 68z m16-185l-32 0c-76 0-138-66-138-147 0-11 9-21 21-21l265 0c11 0 21 9 21 21 1 81-61 147-137 147z m-142-143c0 66 51 118 111 118l31 0c61 0 110-52 112-118z m212 43c0-10-8-18-18-18-10 0-18 8-18 18 0 10 8 19 18 19 10 0 18-9 18-19z"/>
<glyph glyph-name="user-bg" unicode="&#116;" d="M349 352c0-51-42-93-93-93-51 0-93 42-93 93 0 51 42 93 93 93 51 0 93-42 93-93z m-77-117l-32 0c-76 0-138-66-138-147 0-11 9-21 21-21l265 0c11 0 21 9 21 21 1 81-61 147-137 147z m52-117c-10 0-18 8-18 18 0 10 8 18 18 18 10 0 18-8 18-18 0-10-8-18-18-18z"/>
<glyph glyph-name="live-tv" unicode="&#117;" d="M154 320l-19 0 0-86 53 0 0 16-34 0z m44 0l18 0 0-85-18 0z m66-65l-18 65-20 0 29-86 17 0 29 86-19 0z m66 17l41 0 0 14-41 0 0 19 44 0 0 15-62 0 0-86 65 0 0 16-47 0z m80 133l-307 0c-16 0-29-14-29-29l0-190c0-16 14-29 29-29l305 0c16 0 29 13 29 29l0 190c2 16-11 29-27 29z m4-219c0-3-1-4-4-4l-307 0c-2 0-4 1-4 4l0 190c0 2 2 4 4 4l307 0c2 0 4-2 4-4l0-190z m-65-51l-186 0c-8 0-13-6-13-13 0-8 6-14 13-14l186 0c8 0 13 6 13 14 0 7-5 13-13 13z"/>
<glyph glyph-name="live-tv-bg" unicode="&#118;" d="M410 405l-307 0c-16 0-29-14-29-29l0-190c0-16 14-29 29-29l305 0c16 0 29 13 29 29l0 190c2 16-11 29-27 29z m-222-171l-52 0 0 86 18 0 0-70 34 0z m28 0l-18 0 0 86 18 0z m56 0l-17 0-29 86 20 0 18-65 18 65 19 0z m105 0l-65 0 0 86 62 0 0-15-44 0 0-19 41 0 0-14-41 0 0-22 47 0z m-28-99l-186 0c-8 0-13-6-13-13 0-8 6-14 13-14l186 0c8 0 13 6 13 14 0 7-5 13-13 13z"/>
<glyph glyph-name="tv" unicode="&#119;" d="M302 238c0 0-76 35-76 35-2 1-5 1-8 1-10 0-19-8-19-19l0-69c0-11 9-19 19-19 3 0 6 1 8 2 0 0 76 35 76 35 8 3 11 10 11 17 0 6-3 13-11 17z m108 90c2 0 4-2 4-4l0-206c0-3-2-4-4-4l-307 0c-2 0-4 1-4 4l0 206c0 2 2 4 4 4l307 0m0 25l-307 0c-16 0-29-14-29-29l0-206c0-16 14-29 29-29l305 0c16 0 29 13 29 29l0 206c1 16-12 29-27 29z m-89 21c-3 0-7 0-9 3-5 5-5 12 0 17l26 26c4 5 12 5 17 0 5-5 5-12 0-18l-25-24c-3-3-6-4-9-4z m-118 12c0-4-1-7-3-9-5-5-12-5-18 0l-25 25c-5 5-5 12 0 18 5 5 12 5 17 0l25-25c3-3 4-6 4-9z"/>
<glyph glyph-name="tv-bg" unicode="&#120;" d="M410 353l-307 0c-16 0-29-14-29-29l0-206c0-16 14-29 29-29l305 0c16 0 29 13 29 29l0 206c1 16-12 29-27 29z m-108-150c0 0-76-35-76-35-2-1-5-2-8-2-10 0-19 8-19 20l0 68c0 12 9 20 19 20 3 0 6-1 8-2 0 0 76-35 76-35 8-3 11-11 11-17 0-6-3-14-11-17z m19 171c3 0 6 1 9 4l25 24c5 6 5 13 0 18-5 5-13 5-17 0l-26-26c-5-5-5-12 0-17 2-3 6-3 9-3z m-139 3c6-5 13-5 18 0 2 2 3 5 3 9 0 3-1 6-4 9l-25 25c-5 5-12 5-17 0-5-6-5-13 0-18z"/>
<glyph glyph-name="menu" unicode="&#121;" d="M418 275l-324 0c-10 0-19-9-19-19 0-10 10-19 19-19l324 0c11 0 20 9 20 19 0 10-10 19-20 19z m-130-121l-194 0c-10 0-19-9-19-19 0-9 10-19 19-19l194 0c10 0 19 10 19 19 0 10-9 19-19 19z m-194 204l324 0c11 0 20 9 20 19 0 9-10 19-20 19l-324 0c-10 0-19-10-19-19 0-10 9-19 19-19z"/>
<glyph glyph-name="menu-bg" unicode="&#122;" d="M334 438l-156 0c-57 0-104-46-104-104l0-156c0-57 46-104 104-104l156 0c57 0 104 46 104 104l0 156c0 56-48 104-104 104z m-80-291l-105 0c-8 0-15 7-15 15 0 7 8 14 15 14l105 0c8 0 14-7 14-14 1-8-6-15-14-15z m98 92l-203 0c-8 0-15 7-15 15 0 8 8 14 15 14l203 0c8 0 14-7 14-14 0-8-6-15-14-15z m0 92l-203 0c-8 0-15 7-15 15 0 8 8 14 15 14l203 0c8 0 14-7 14-14 0-8-6-15-14-15z"/>
<glyph glyph-name="lock" unicode="&#65;" d="M270 190c0-8-7-14-14-14-8 0-14 6-14 14l0 36c0 8 6 14 14 14 8 0 14-6 14-14z m-8 248c-23 0-45-9-61-26-17-17-26-38-26-62l0-8-1 0c-22 0-43-8-59-24-16-16-25-38-25-60l0-99c0-22 9-44 25-60 16-16 37-25 59-25l163 0c22 0 44 9 59 25 16 16 25 38 25 60l0 99c0 22-9 44-25 60-13 12-28 20-46 24l0 0 0 8c0 24-10 45-26 62-16 16-38 26-62 26z m75-336l-162 0c-15 0-29 6-41 16-10 11-16 26-16 41l0 99c0 15 5 29 16 40 11 11 26 17 41 17l163 0c15 0 29-6 40-17 12-11 17-25 17-40l0-99c0-15-6-29-17-41-10-11-26-16-41-16z m-14 240l-121 0 0 8c0 16 7 32 19 43 11 11 26 17 42 17 16 0 31-6 43-17 12-12 18-27 18-43l0-8z"/>
<glyph glyph-name="lock-bg" unicode="&#66;" d="M397 318c-13 12-28 20-46 24l-1 0 0 8c0 24-9 45-25 62-17 17-39 26-62 26-23 0-45-9-61-26-17-17-26-38-26-62l0-8-1 0c-22 0-43-8-59-24-16-16-25-38-25-60l0-99c0-22 9-44 25-60 16-16 37-25 59-25l163 0c22 0 44 9 59 25 16 16 25 38 25 60l0 99c0 22-9 44-25 60z m-127-128c0-8-7-14-14-14-8 0-14 6-14 14l0 36c0 8 6 14 14 14 8 0 14-6 14-14z m53 152l-121 0 0 8c0 16 7 32 19 43 11 11 26 17 42 17 16 0 31-6 43-17 12-12 18-27 18-43l0-8z"/>
<glyph glyph-name="open-lock" unicode="&#67;" d="M302 191c0-8-7-14-15-14-8 0-14 6-14 14l0 35c0 8 6 15 14 15 8 0 15-7 15-15z m-156 219c16 0 32-7 44-18 11-11 17-26 17-42l0-8-1 0c-22 0-43-9-59-25-16-16-25-37-25-59l0-98c0-22 9-44 25-59 16-16 37-25 59-25l162 0c22 0 44 9 59 25 16 16 25 37 25 59l0 98c0 22-9 44-25 59-16 16-37 25-59 25l-134 0 0 8c0 23-8 45-25 61-17 17-39 26-62 26-23 0-45-9-61-26-17-17-26-38-26-61l0-22c0-7 6-14 14-14 7 0 13 7 13 14l0 22c0 16 7 31 18 42 10 11 25 18 41 18z m223-308l-162 0c-15 0-29 7-41 17-10 11-16 26-16 41l0 98c0 15 6 30 16 40 12 12 26 17 41 17l162 0c15 0 30-6 41-17 10-10 16-25 16-40l0-98c0-15-6-30-16-41-12-11-26-17-41-17z"/>
<glyph glyph-name="open-lock-bg" unicode="&#68;" d="M428 317c-16 16-37 25-59 25l-135 0 0 8c0 23-8 45-25 61-17 17-39 26-62 26-23 0-45-9-61-26-17-17-26-38-26-61l0-22c0-7 6-14 14-14 7 0 13 7 13 14l0 22c0 16 7 31 18 42 11 11 26 18 42 18 16 0 31-7 43-18 12-11 18-26 18-42l0-8-1 0c-22 0-43-9-59-25-16-16-25-37-25-59l0-98c0-22 9-44 25-59 16-16 37-25 59-25l162 0c22 0 44 9 59 25 16 16 25 37 25 59l0 98c0 22-9 43-25 59z m-126-126c0-8-7-14-15-14-8 0-14 6-14 14l0 35c0 8 6 15 14 15 8 0 15-7 15-15z"/>
<glyph glyph-name="doc" unicode="&#69;" d="M283 438l-130 0c-24 0-42-19-42-41l0-281c0-22 19-41 42-41l206 0c24 0 42 19 42 41l0 201z m78-339l-209 0c-8 0-14 7-14 14l0 285c0 7 6 13 14 13l124 0c0-1 1-1 1-1l85-88-76 0c-2 0-4 1-4 4l0 45c0 7-5 14-12 14-8 0-12-7-12-14l0-49c0-14 11-25 24-25l94 0 0-183c0-8-6-15-15-15z"/>
<glyph glyph-name="doc-bg" unicode="&#70;" d="M281 297c-13 0-24 11-24 25l0 49c0 7 5 14 12 14 7 0 13-7 13-14l0-45c0-3 1-4 4-4l110 0-113 116-130 0c-24 0-42-19-42-41l0-281c0-22 19-41 42-41l206 0c24 0 42 19 42 41l0 181z"/>
<glyph glyph-name="calendar" unicode="&#71;" d="M158 210c7 0 12 6 12 12 0 7-6 12-12 12-7 0-12-5-12-12 0-6 4-12 12-12z m65 0c7 0 12 6 12 12 0 7-5 12-12 12-6 0-12-5-12-12 0-6 6-12 12-12z m67 0c7 0 12 6 12 12 0 7-6 12-12 12-8 0-12-5-12-12 0-6 4-12 12-12z m65 0c7 0 12 6 12 12 0 7-5 12-12 12-7 0-12-5-12-12 0-6 6-12 12-12z m-197-63c7 0 12 6 12 12 0 7-6 12-12 12-7 0-12-5-12-12-1-6 4-12 12-12z m65 0c7 0 12 6 12 12 0 7-5 12-12 12-6 0-12-5-12-12 0-6 6-12 12-12z m67 0c7 0 12 6 12 12 0 7-6 12-12 12-8 0-12-5-12-12-1-6 4-12 12-12z m103 224l-273 0c-26 0-46-21-46-45l0-206c0-26 21-46 46-46l272 0c26 0 46 21 46 46l0 205c0 25-20 46-45 46z m21-251c0-11-9-21-21-21l-273 0c-11 0-21 9-21 21l0 156 315 0z m0 181l-315 0 0 25c0 11 9 20 21 20l273 0c11 0 21-8 21-20z m-256 95c6 0 12 6 12 12l0 17c0 6-6 12-12 12-7 0-12-6-12-12l0-17c-1-6 4-12 12-12z m197 0c7 0 12 6 12 12l0 17c0 6-5 12-12 12-6 0-12-6-12-12l0-17c0-6 6-12 12-12z"/>
<glyph glyph-name="calendar-bg" unicode="&#72;" d="M158 396c6 0 12 6 12 12l0 17c0 6-6 12-12 12-7 0-12-6-12-12l0-17c-1-6 4-12 12-12z m197 0c7 0 12 6 12 12l0 17c0 6-5 12-12 12-6 0-12-6-12-12l0-17c0-6 6-12 12-12z m38-25l-273 0c-26 0-46-21-46-45l0-25 364 0 0 24c0 25-20 46-45 46z m-319-251c0-26 21-46 46-46l272 0c26 0 46 21 46 46l0 156-364 0z m281 115c7 0 12-5 12-12 0-6-5-12-12-12-7 0-12 6-12 12 0 7 6 12 12 12z m-65 0c7 0 12-5 12-12 0-6-6-12-12-12-8 0-12 6-12 12 0 7 4 12 12 12z m0-63c7 0 12-6 12-12 0-7-6-12-12-12-8 0-12 6-12 12-1 6 4 12 12 12z m-67 63c7 0 12-5 12-12 0-6-5-12-12-12-6 0-12 6-12 12 0 7 6 12 12 12z m0-63c7 0 12-6 12-12 0-7-5-12-12-12-6 0-12 6-12 12 0 6 6 12 12 12z m-65 63c7 0 12-5 12-12 0-6-6-12-12-12-7 0-12 6-12 12 0 7 4 12 12 12z m0-63c7 0 12-6 12-12 0-7-6-12-12-12-7 0-12 6-12 12-1 6 4 12 12 12z"/>
<glyph glyph-name="check" unicode="&#73;" d="M206 124c-8 0-16 3-22 10l-100 99c-6 6-10 14-10 23 0 9 4 17 10 22 13 13 33 13 46 0l76-76 176 176c13 12 33 12 46 0 13-13 13-33 0-46l-198-198c-7-6-15-10-24-10z"/>
<glyph glyph-name="check-bg" unicode="&#74;" d="M334 438l-156 0c-57 0-104-47-104-104l0-156c0-57 47-104 104-104l156 0c57 0 104 47 104 104l0 156c0 57-47 104-104 104z m50-125l-148-148c-5-5-10-7-17-7-6 0-12 2-17 7l-74 73c-5 5-7 12-7 18 0 6 2 12 7 17 10 9 25 9 34 0l56-57 132 131c9 10 24 10 34 0 10-9 10-25 0-34z"/>
<glyph glyph-name="trash" unicode="&#75;" d="M370 388l-32 0 0 30c0 11-8 20-19 20l-126 0c-11 0-19-8-19-20l0-30-32 0c-19 0-34-15-34-34l0-48 17 0 0-192c0-22 17-40 39-40l185 0c21 0 39 18 39 40l0 192 15 0 0 48c1 19-14 34-33 34z m-170 25l114 0 0-25-114 0z m163-299c0-8-6-15-15-15l-184 0c-8 0-15 7-15 15l0 192 213 0 0-192z m17 217l-246 0 0 23c0 5 4 9 8 9l228 0c5 0 9-4 9-9l0-23z m-123-206c6 0 12 5 12 12l0 136c0 6-6 12-12 12-7 0-12-6-12-12l0-136c-1-7 5-12 12-12z m-66 17c7 0 12 5 12 12l0 103c0 6-5 12-12 12-6 0-12-6-12-12l0-103c0-7 6-12 12-12z m131 0c8 0 12 5 12 12l0 103c0 6-5 12-12 12-6 0-12-6-12-12l0-103c0-7 6-12 12-12z"/>
<glyph glyph-name="trash-bg" unicode="&#76;" d="M382 380l-252 0c-8 0-17-7-17-18l0-20 285 0 0 20c0 10-8 18-16 18z m-60 44c0 6-6 13-12 13l-108 0c-7 0-12-6-12-13l0-15 132 0z m-190-308c0-23 18-41 41-41l165 0c24 0 41 19 41 41l0 198-248 0 0-198z m178 128c0 6 5 12 12 12 6 0 12-6 12-12l0-102c0-7-5-12-12-12-7 0-12 5-12 12z m-66 16c0 6 6 12 12 12 6 0 12-6 12-12l0-135c0-7-6-12-12-12-6 0-12 5-12 12z m-65-16c0 6 6 12 12 12 7 0 12-6 12-12l0-102c0-7-5-12-12-12-6 0-12 5-12 12z"/>
<glyph glyph-name="pencil" unicode="&#77;" d="M86 181c1-11 10-20 21-21l29-2c1 0 1 0 2 0 5 0 11 3 15 6l205 205c8 8 8 21 0 28l-35 34c-3 3-9 6-13 6-5 0-11-2-14-6l-205-203c-4-4-7-11-5-17z m224 231l28-28-28-28-28 28z m-48-47l28-28-155-154-25 2-2 25z m159-263l-330 0c-7 0-13-6-13-13 0-7 6-14 13-14l330 0c7 0 13 7 13 14 0 7-6 13-13 13z"/>
<glyph glyph-name="pencil-bg" unicode="&#78;" d="M421 102l-330 0c-7 0-13-6-13-13 0-7 6-14 13-14l330 0c7 0 13 7 13 14 0 7-6 13-13 13z m-63 267c8 8 8 21 0 28l-34 34c-3 3-9 6-14 6-4 0-10-2-13-6l-31-30 62-63z m-272-188c1-11 10-20 21-21l29-2c1 0 1 0 2 0 5 0 11 3 15 6l154 154-62 62-154-152c-4-4-7-11-5-17z"/>
<glyph glyph-name="close" unicode="&#79;" d="M408 74c-4 0-14 1-22 8l-130 132-130-129c-6-7-16-9-21-9-4 0-15 1-22 8l-1 1c-10 12-10 30 1 41l131 132-132 130c-10 12-10 30 1 41l2 1c13 10 30 9 41-1l131-130 132 131c13 10 30 9 41-1l0-1c11-12 10-30 0-41l-132-130 132-133c10-12 9-30-1-41-6-5-15-9-21-9z"/>
<glyph glyph-name="close-bg" unicode="&#80;" d="M334 438l-156 0c-57 0-104-46-104-104l0-156c0-57 46-104 104-104l156 0c57 0 104 46 104 104l0 156c0 56-48 104-104 104z m44-275c8-8 8-21 0-29-4-4-11-6-15-6-3 0-10 1-15 6l-92 92-91-91c-5-5-11-6-15-6-4 0-11 1-16 5l0 2c-8 8-8 22 0 29l92 92-92 92c-8 8-8 21 0 29l2 0c9 7 22 7 29 0l92-92 93 93c8 7 21 7 28-1l1 0c7-8 7-22-1-29l-92-92z"/>
<glyph glyph-name="card" unicode="&#81;" d="M334 443l-156 0c-24 0-45-20-45-45l0-283c0-25 20-45 45-45l156 0c24 0 45 20 45 45l0 283c0 25-20 45-45 45z m22-328c0-13-10-22-22-22l-156 0c-12 0-22 10-22 22l0 283c0 12 10 22 22 22l156 0c12 0 22-10 22-22z m-58 278l-87 0c-6 0-12-6-12-12 0-7 6-12 12-12l88 0c7 0 12 5 11 12 0 6-6 12-12 12z m-28-260c0-8-6-14-14-14-8 0-14 6-14 14 0 7 6 13 14 13 8 0 14-6 14-13z"/>
<glyph glyph-name="card-bg" unicode="&#82;" d="M334 443l-156 0c-24 0-45-20-45-45l0-283c0-25 20-45 45-45l156 0c24 0 45 20 45 45l0 283c0 25-20 45-45 45z m-78-324c-7 0-14 7-14 14 0 7 7 13 14 13 7 0 14-6 14-13 0-7-7-14-14-14z m42 251l-88 0c-6 0-12 5-12 12 0 6 6 12 12 12l88 0c6 0 12-6 12-12 0-8-5-12-12-12z"/>
<glyph glyph-name="network" unicode="&#83;" d="M256 438c-101 0-182-82-182-182 0-101 82-182 182-182 100 0 182 82 182 182 0 101-81 182-182 182z m137-106l-61 0c-6 30-17 55-29 74 39-13 71-40 90-74z m20-76c0-18-3-35-9-51l-68 0c2 17 3 33 3 51 0 18-1 34-3 51l68 0c6-16 9-33 9-51z m-157-157c-17 0-38 30-51 81l102 0c-13-51-34-81-51-81z m-56 106c-2 16-3 33-3 51 0 18 1 35 3 51l111 0c3-16 3-33 3-51 0-18-1-35-3-51z m56 208c17 0 38-30 51-81l-102 0c13 51 34 81 51 81z m-48-7c-12-19-22-44-29-74l-61 0c20 34 52 61 90 74z m-33-201l-68 0c-5 16-9 33-9 51 0 18 4 35 9 51l68 0c-2-17-3-33-3-51 0-18 1-34 3-51z m-56-25l61 0c6-30 17-55 29-74-39 13-71 40-90 74z m185-74c12 19 22 44 29 74l61 0c-20-34-52-61-90-74z"/>
<glyph glyph-name="network-bg" unicode="&#84;" d="M256 74c-20 0-46 35-59 93l117 0c-12-57-38-93-58-93z m-64 123c-2 18-4 37-4 59 0 22 2 42 4 59l128 0c2-18 4-37 4-59 0-22-2-42-4-59z m-117 59c0 21 3 41 10 59l78 0c-2-19-4-38-4-59 0-21 2-41 4-59l-78 0c-6 18-10 38-10 59z m181 182c20 0 46-35 59-93l-117 0c13 57 39 93 58 93z m93-123l78 0c7-19 10-38 10-59 0-21-3-41-10-59l-78 0c2 19 4 38 4 59 0 21-1 41-4 59z m65 29l-71 0c-7 34-19 63-33 85 45-15 82-45 104-85z m-212 84c-15-22-26-51-33-85l-71 0c23 41 60 71 104 85z m-104-260l72 0c7-34 19-63 32-85-44 15-81 45-104 85z m213-84c15 22 26 51 33 85l71 0c-23-41-60-71-104-85z"/>
<glyph glyph-name="email" unicode="&#85;" d="M140 395l232 0c18 0 34-7 46-19 12-12 20-28 20-46l0-148c0-18-8-34-20-46-12-12-28-19-46-19l-232 0c-18 0-34 7-46 19-12 12-20 28-20 46l0 148c0 18 8 34 20 46 12 12 28 19 46 19z m-34-42l150-83 150 83c-2 2-4 4-5 5-7 8-18 12-29 12l-232 0c-11 0-22-4-29-12-1-1-3-3-5-5z m307-24l-151-83c-4-3-8-3-12 0l-151 83 0-147c0-11 5-21 12-28 7-8 18-12 29-12l232 0c11 0 22 4 29 12 7 7 12 17 12 28z"/>
<glyph glyph-name="email-bg" unicode="&#86;" d="M266 242c-4-2-8-2-12 0l-174 97c-1-4-1-8-1-12l0-147c0-18 7-34 19-46 12-12 28-20 47-20l232 0c18 0 34 8 46 20 12 12 19 28 19 46l0 146c0 4 0 8-1 12z m-6 25l171 95c-2 4-5 8-9 12-12 11-28 18-46 18l-232 0c-18 0-34-7-46-19-4-3-7-7-9-11z"/>
<glyph glyph-name="info" unicode="&#87;" d="M256 438c-101 0-182-81-182-182 0-101 81-182 182-182 101 0 182 81 182 182 0 101-81 182-182 182z m0-338c-86 0-156 70-156 156 0 86 70 156 156 156 86 0 156-70 156-156 0-86-70-156-156-156z m14 234c0-7-6-13-14-13-8 0-14 6-14 13 0 8 6 14 14 14 8 0 14-6 14-14z m9-143l-9 0 0 89c0 8-6 14-14 14l-23 0c-8 0-14-6-14-14 0-8 6-14 14-14l9 0 0-75-9 0c-8 0-14-5-14-13 0-8 6-14 14-14l46 0c8 0 14 6 14 14 0 8-7 13-14 13z"/>
<glyph glyph-name="info-bg" unicode="&#88;" d="M256 438c-101 0-182-81-182-182 0-101 81-182 182-182 101 0 182 81 182 182 0 101-81 182-182 182z m0-90c7 0 14-6 14-14 0-7-7-13-14-13-7 0-14 6-14 13 0 8 7 14 14 14z m23-184l-46 0c-8 0-14 6-14 14 0 8 6 13 14 13l9 0 0 75-9 0c-8 0-14 6-14 14 0 8 6 14 14 14l23 0c8 0 14-6 14-14l0-89 9 0c7 0 14-5 14-13 0-8-7-14-14-14z"/>
<glyph glyph-name="warning" unicode="&#89;" d="M268 160c0-7-5-12-12-12-7 0-12 5-12 12 0 7 5 12 12 12 7 0 12-5 12-12z m-12 151c-6 0-12-5-12-12l0-91c0-6 6-12 12-12 6 0 12 6 12 12l0 91c0 7-6 12-12 12z m177-169l-150 259c-6 10-17 16-27 16-10 0-21-5-27-15l-151-260c-12-21 4-47 28-47l300 0c24 0 40 26 27 47z m-21-19c-1-1-3-4-6-4l-300 0c-4 0-5 3-6 3-1 2-2 4 0 8l150 259c1 3 4 4 6 4 2 0 5-1 6-3l150-260c2-3 1-5 0-7z"/>
<glyph glyph-name="warning-bg" unicode="&#90;" d="M433 142l-150 259c-6 10-17 16-27 16-10 0-21-5-27-15l-151-260c-12-21 4-47 28-47l300 0c24 0 40 26 27 47z m-177 6c-6 0-12 6-12 12 0 6 6 12 12 12 6 0 12-6 12-12 0-6-6-12-12-12z m12 60c0-6-6-12-12-12-6 0-12 6-12 12l0 91c0 7 6 12 12 12 6 0 12-5 12-12z"/>
<glyph glyph-name="video" unicode="&#48;" d="M292 370l-193 0c-14 0-25-10-25-24l0-180c0-15 11-25 25-25l193 0c14 0 25 11 25 25l0 180c0 14-11 24-25 24z m0-203l-193 0 0 179 193 0z m123 172l-68-49c-3-3-5-7-5-12l0-45c0-4 2-9 5-11l68-50c9-6 23 0 23 11l0 145c0 11-14 18-23 11z m-2-134l-47 33 0 36 47 33z"/>
<glyph glyph-name="video-bg" unicode="&#49;" d="M296 367l-193 0c-14 0-25-10-25-25l0-180c0-14 11-24 25-24l193 0c14 0 25 11 25 24l0 180c0 15-11 25-25 25z m123-31l-68-50c-3-2-5-6-5-11l0-45c0-4 2-9 5-12l68-49c9-7 23 0 23 11l0 146c0 10-14 16-23 10z"/>
<glyph glyph-name="image" unicode="&#50;" d="M317 310c0-8-6-14-14-14-7 0-13 6-13 14 0 7 6 13 13 13 8 0 14-6 14-13z m87 112l-296 0c-18 0-33-15-33-33l0-265c0-18 15-33 33-33l297 0c18 0 33 15 33 33l0 265c-1 17-16 33-34 33z m8-297c0-6-4-10-10-10l-293 0c-6 0-10 4-10 10l0 46 92 104 71-80c8-9 20-14 32-14 12 0 25 5 33 14l37 43 48-56c0 0 0-57 0-57z m0 97l-34 40c-4 4-9 6-14 6-5 0-10-2-14-6l-41-49c-3-4-9-7-14-7-5 0-11 2-15 6l-76 86c-3 4-8 5-13 5-5 0-9-1-13-5l-78-88 0 179c0 4 3 8 8 8l296 0c4 0 8-3 8-8z"/>
<glyph glyph-name="image-bg" unicode="&#51;" d="M404 422l-296 0c-18 0-33-15-33-33l0-208 103 117c4 4 9 5 14 5 5 0 10-1 13-5l75-86c4-4 10-6 15-6 5 0 11 3 14 7l41 49c4 4 9 6 14 6 5 0 10-2 14-6l60-69 0 196c-1 17-16 33-34 33z m-101-126c-7 0-13 6-13 14 0 7 6 13 13 13 7 0 14-6 14-13 0-8-7-14-14-14z m24-101c-8-9-21-14-33-14-12 0-24 5-32 14l-71 80-117-132 0-20c0-18 15-33 33-33l297 0c18 0 33 15 33 33l0 29-74 86z"/>
<glyph glyph-name="file-text" unicode="&#52;" d="M401 273l-59 0 0 97c0 28-24 49-53 49l-163 0c-30 0-52-22-52-49l0-229c0-28 24-50 52-50l252 0c34 0 61 27 61 61l0 83c0 20-17 38-38 38z m-275-157c-16 0-28 11-28 26l0 228c0 13 12 25 28 25l163 0c15 0 28-11 28-25l0-218c0-14 5-27 12-37l-203 0z m288 36c0-20-16-36-36-36l0 0c-20 0-36 16-36 36l0 96 59 0c7 0 13-6 13-14 0 0 0-82 0-82z m-265 110l77 0c14 0 27 12 27 28l0 43c0 14-12 27-27 27l-77 0c-15 0-27-12-27-27l0-43c0-16 13-28 27-28z m-3 70c0 2 1 2 3 2l77 0c1 0 2 0 2-2l0-43c0-2-1-3-2-3l-77 0c-2 0-3 1-3 3z m111-107l-121 0c-6 0-12-6-12-12 0-7 6-12 12-12l121 0c6 0 12 5 12 12 0 6-6 12-12 12z m-33-50l-88 0c-6 0-12-5-12-12 0-6 6-12 12-12l88 0c6 0 12 6 12 12 0 7-6 12-12 12z"/>
<glyph glyph-name="file-text-bg" unicode="&#53;" d="M402 273l-35 0 0-126c0-4 6-7 10-7 13 0 50 0 61 0 0 4 0 8 0 12l0 83c2 20-16 38-36 38z m-253 13l77 0c1 0 2 1 2 3l0 43c0 2-1 2-2 2l-77 0c-2 0-3 0-3-2l0-43c0-2 1-3 3-3z m193-134l0 218c0 28-24 50-52 50l-165 0c-30 0-52-22-52-50l0-229c0-28 24-50 52-50l253 0c2 0 4 0 5 0 18 2 33 11 43 24-15 0-37 0-49 0-18 1-35 17-35 37z m-220 180c0 14 12 27 27 27l77 0c14 0 27-12 27-27l0-43c0-15-12-27-27-27l-77 0c-15 0-27 12-27 27z m102-181l-89 0c-6 0-12 6-12 12 0 7 6 12 12 12l89 0c6 0 12-5 12-12 0-6-6-12-12-12z m33 49l-122 0c-6 0-12 6-12 12 0 6 6 12 12 12l122 0c6 0 12-6 12-12 0-6-6-12-12-12z"/>
<glyph glyph-name="graphic" unicode="&#54;" d="M334 108c0-2-1-2-3-2l-226 0c-2 0-3 0-3 2l0 296c0 2 1 2 3 2l226 0c2 0 3 0 3-2l0-119 26 26 0 93c0 17-14 30-30 30l-225 0c-16 0-30-13-30-29l0-298c0-16 14-29 30-29l226 0c16 0 30 13 30 29l0 91-27-27z m80 223c-12 0-22-10-22-22 0-1 0-2 0-3l-99-99c-1 0-2 0-3 0-2 0-4 0-4-1l-68 68-51-49c-1 0-1 0-2 0-13 0-23-11-23-23 0-12 11-22 23-22 13 0 22 10 22 22 0 1 0 2 0 3l31 31 50-50c0 0 0-1 0-2 0-13 10-22 22-22 13 0 23 10 23 22 0 1 0 2 0 2l100 100c1 0 1 0 3 0 13 0 22 11 22 23 0 13-11 22-24 22z"/>
<glyph glyph-name="graphic-bg" unicode="&#55;" d="M290 136c-24 0-44 17-49 40l-23 23-5-5c-4-23-24-40-49-40-26 0-50 23-50 50 0 24 17 43 40 49l63 62 72-72 71 71 0 92c0 16-14 29-30 29l-225 0c-16 0-30-13-30-29l0-300c0-16 14-29 30-29l227 0c16 0 30 13 30 29l0 92-23-22c-5-23-25-40-49-40z m125 197c-13 0-22-11-25-22 0-1 0-1 0-2l-100-102c-1 0-2 0-3 0-1 0-1 0-2 0l-69 69-51-51c-1 0-2 0-3 0-12 0-22-11-22-23 0-12 10-22 22-22 13 0 23 10 23 22 0 1 0 2 0 3l33 33 50-51c0-1 0-1 0-2 0-13 10-23 22-23 12 0 23 11 23 23 0 1 0 1 0 2l101 101c1 0 2 0 3 0 13 0 22 10 22 22 0 12-11 23-24 23z"/>
<glyph glyph-name="folder" unicode="&#56;" d="M396 366l-152 0c-2 0-5 3-5 5l0 8c0 23-19 42-41 42l-82 0c-22 0-42-19-42-42l0-246c0-23 19-42 42-42l280 0c22 0 42 19 42 42l0 192c0 23-19 41-42 41z m17-233c0-9-7-17-17-17l-280 0c-9 0-17 7-17 17l0 157 314 0z m0 182l-314 0 0 64c0 9 7 17 17 17l82 0c8 0 16-7 16-17l0-8c0-17 13-29 30-29l153 0c9 0 17-8 17-17l0-10z m-276-157l57 0c7 0 12 5 12 12 0 6-5 12-12 12l-57 0c-7 0-12-6-12-12 0-7 5-12 12-12z"/>
<glyph glyph-name="folder-bg" unicode="&#57;" d="M396 366l-152 0c-2 0-5 3-5 5l0 8c0 23-18 42-41 42l-82 0c-22 0-42-19-42-42l0-64 364 0 0 10c0 22-19 41-42 41z m-322-233c0-23 19-42 42-42l280 0c22 0 42 19 42 42l0 157-364 0z m63 49l57 0c7 0 12-5 12-12 0-6-5-12-12-12l-57 0c-7 0-12 6-12 12 0 7 5 12 12 12z"/>
<glyph glyph-name="notification" unicode="&#33;" d="M414 155c-1 1-4 2-5 2l-21 0 0 115c0 69-53 126-120 132l0 22c0 6-6 12-12 12-6 0-12-6-12-12l0-22c-66-6-120-62-120-132l0-114-21 0c-6 0-12-6-12-12 0-7 6-12 12-12l79 0c7-34 36-60 73-60 37 0 66 26 73 60l79 0c7 0 12 5 12 12 3 3 0 7-5 9z m-159-57c-22 0-41 15-47 34l95 0c-7-19-25-34-48-34z m-108 59l0 115c0 59 48 108 108 108 60 0 108-48 108-108l0-114-216 0z"/>
<glyph glyph-name="notification-bg" unicode="&#34;" d="M414 157c-2 1-4 1-6 1l-21 0 0 115c0 69-53 125-119 131l0 22c0 6-6 12-12 12-6 0-12-6-12-12l0-22c-66-6-119-62-119-131l0-114-21 0c-6 0-12-5-12-12 0-6 6-12 12-12l304 0c6 0 12 6 12 12 1 3-2 7-6 10z m-159-83c27 0 50 15 63 35l-125 0c13-20 36-35 62-35z"/>
<glyph glyph-name="download" unicode="&#35;" d="M177 238c-7 7-7 16 0 23 6 6 16 6 22 0l43-43 0 204c0 8 6 15 15 15 9 0 15-7 15-15l0-204 42 42c7 6 16 6 23 0 6-6 6-16 0-22l-69-69c-6-7-16-7-22 0z m79-132l98 0c12 0 23 3 31 9 6 6 10 12 10 19l0 31c0 9 7 15 15 15 9 0 16-7 16-15l0-31c0-16-9-32-23-43-13-9-30-16-49-16l-197 0c-19 0-37 7-50 16-13 11-22 27-22 43l0 31c0 9 7 15 15 15 9 0 15-7 15-15l0-31c0-7 4-13 11-19 8-5 18-9 30-9z"/>
<glyph glyph-name="download-bg" unicode="&#36;" d="M245 170c6-7 16-7 22 0l69 68c6 7 6 16 0 23-6 6-16 6-22 0l-43-43 0 204c0 8-6 15-15 15-9 0-15-7-15-15l0-204-43 42c-6 6-16 6-22 0-6-6-6-16 0-22z m166 10c-3 0-45 0-98 0l-28-28c-8-8-19-12-29-12-10 0-21 4-29 12l-28 28c-53 0-95 0-98 0-9 0-15-7-15-15l0-31c0-16 8-32 22-43 13-9 30-16 50-16l196 0c20 0 37 7 50 16 14 11 22 27 22 43l0 31c1 8-6 15-15 15z"/>
<glyph glyph-name="upload" unicode="&#37;" d="M198 342c-6-5-16-5-22 0-6 7-6 16 0 23l69 69c6 6 16 6 22 0l69-69c6-6 6-16 0-23-6-5-16-5-22 0l-43 42 0-203c0-9-6-15-15-15-9 0-15 6-15 15l0 203z m58-236l99 0c12 0 23 3 31 9 6 6 10 12 10 19l0 31c0 9 6 15 15 15 9 0 15-7 15-15l0-31c0-16-8-32-22-43-13-9-30-16-50-16l-197 0c-19 0-37 7-50 16-13 11-22 27-22 43l0 31c0 9 7 15 15 15 8 0 15-7 15-15l0-31c0-7 4-13 11-19 8-5 18-9 30-9z"/>
<glyph glyph-name="upload-bg" unicode="&#38;" d="M198 342l43 43 0-203c0-9 6-16 15-16 9 0 15 7 15 16l0 202 43-42c6-6 16-6 22 0 6 6 6 16 0 22l-69 69c-6 6-16 6-22 0l-69-69c-6-6-6-16 0-22 6-6 16-6 22 0z m213-162c-4 0-55 0-115 0 0-22-18-40-40-40-22 0-40 18-40 40-60 0-112 0-115 0-9 0-15-7-15-15l0-31c0-16 8-32 22-43 13-9 30-16 50-16l197 0c19 0 37 7 50 16 13 11 22 27 22 43l0 31c0 8-7 15-16 15z"/>
<glyph glyph-name="filter" unicode="&#39;" d="M406 410l-122-146c-6-7-10-19-10-29l0-108-34-21 0 130c0 10-3 21-10 29l-124 145 300 0m12 25l-324 0c-16 0-25-20-15-32l130-155c2-3 4-7 4-12l0-140c0-10 9-20 20-20 3 0 6 1 9 2l48 28c5 4 8 10 8 18l0 112c0 4 2 9 4 12l131 156c10 13 1 31-15 31z"/>
<glyph glyph-name="filter-bg" unicode="&#40;" d="M418 436l-324 0c-16 0-25-20-15-32l130-155c2-3 4-7 4-12l0-139c0-11 9-20 20-20 3 0 6 0 9 2l48 28c5 3 8 10 8 18l0 110c0 4 2 9 4 12l131 156c10 13 1 32-15 32z"/>
<glyph glyph-name="sent-mail" unicode="&#41;" d="M422 279l-308 149c-4 2-8 2-13 2-17 0-31-16-26-33l39-135c1-4 1-8 0-14l-39-134c-5-17 9-33 26-33 4 0 8 1 13 2l308 149c20 10 20 38 0 47z m-323 126c1 0 2 1 3 1 0 0 0 0 1 0l287-138-253 0c0 1 0 1 0 2z m4-299c-1 0-1 0-1 0-1 0-3 1-3 2l39 134 0 1 248 0z"/>
<glyph glyph-name="sent-mail-bg" unicode="&#42;" d="M113 268l325 0c-3 4-7 8-12 11l-312 151c-20 10-45-8-38-31z m0-25l-37-130c-6-22 18-40 38-31l312 150c4 2 9 6 12 11z"/>
<glyph glyph-name="play" unicode="&#43;" d="M256 438c-100 0-182-82-182-182 0-100 81-182 182-182 100 0 182 81 182 182 0 101-82 182-182 182z m0-341c-87 0-159 71-159 159 0 88 72 159 159 159 87 0 159-72 159-159 0-87-72-159-159-159z m98 142l-134-77c-14-7-29 2-29 17l0 154c0 15 17 23 29 17l134-77c12-8 12-26 0-34z"/>
<glyph glyph-name="play-bg" unicode="&#44;" d="M256 438c-101 0-182-81-182-182 0-101 81-182 182-182 101 0 182 81 182 182 0 101-81 182-182 182z m98-199l-134-77c-14-7-29 2-29 17l0 154c0 15 17 23 29 17l134-77c12-8 12-26 0-34z"/>
<glyph glyph-name="comment" unicode="&#45;" d="M256 428c-100 0-182-67-182-150 0-47 28-92 73-120l0-60c0-4 3-9 7-12 2-1 4-2 7-2 2 0 4 1 6 2l92 43c99 1 179 68 179 149 0 83-82 150-182 150z m0-273c-2 0-4-1-6-1l-76-36 0 47c0 5-4 10-8 13-41 23-66 60-66 101 0 68 70 123 156 123 86 0 156-55 156-123 0-68-70-124-156-124z m81 159l-154 0c-7 0-13-6-13-13 0-7 6-14 13-14l155 0c7 0 13 6 13 14 0 8-6 13-14 13z m-72-64l-82 0c-7 0-13-6-13-13 0-7 6-14 13-14l82 0c8 0 13 7 13 14 1 7-6 13-13 13z"/>
<glyph glyph-name="comment-bg" unicode="&#46;" d="M256 428c-100 0-182-67-182-150 0-47 28-92 73-120l0-60c0-4 3-9 7-12 2-1 4-2 7-2 2 0 4 1 6 2l92 43c99 1 179 68 179 149 0 83-82 150-182 150z m9-205l-82 0c-7 0-13 7-13 14 0 7 6 13 13 13l82 0c7 0 14-6 13-13 0-7-5-14-13-14z m73 64l-155 0c-7 0-13 7-13 14 0 7 6 13 13 13l154 0c8 0 14-5 14-13 0-8-6-14-13-14z"/>
<glyph glyph-name="plus" unicode="&#47;" d="M430 234c-4-3-11-9-21-9l-122 1-1-120c0-9-4-18-8-22-4-3-11-10-21-10l-1 0c-16 1-29 15-29 30l-1 122-124-1c-15 1-28 14-28 29l0 3c3 16 16 28 30 28l123 1 1 123c2 16 15 28 30 28l0 0c16-1 28-15 28-30l0-121 124-1c16-1 28-15 28-30 0-8-4-16-8-21z"/>
<glyph glyph-name="plus-bg" unicode="&#58;" d="M334 438l-156 0c-57 0-104-46-104-104l0-156c0-57 46-104 104-104l156 0c57 0 104 46 104 104l0 156c0 56-48 104-104 104z m63-200c-3-2-9-8-17-8l-98 1-1-97c0-7-4-14-7-17-3-3-9-8-17-8l-1 0c-13 1-23 11-23 24l-2 99-100-1c-12 2-23 12-22 24l0 2c1 13 12 22 24 22l99 2 1 99c1 13 12 22 24 22l1 0c12 0 23-12 23-24l0-98 100-1c13-1 23-12 23-24-1-6-4-13-7-17z"/>
<glyph glyph-name="favorite" unicode="&#59;" d="M262 410l0 0m-6-12l38-76c5-11 16-19 29-20l84-12-61-60c-8-9-13-22-11-34l15-84-76 39c-5 3-12 5-18 5-6 0-13-2-18-5l-76-39 15 84c2 13-3 26-11 34l-60 58 85 12c13 2 23 10 30 21l35 77m0 32c-6 0-11-4-14-9l-44-89c-3-5-7-8-12-9l-98-14c-13-3-18-19-9-27l71-69c4-4 5-9 4-15l-16-96c-2-11 6-20 16-20 3 0 6 1 8 2l87 46c2 1 5 1 7 1 2 0 6-1 7-1l87-46c3-2 6-2 8-2 8 0 17 8 16 20l-17 96c-1 6 1 11 5 15l70 69c10 8 5 25-9 27l-97 14c-6 1-10 4-12 9l-44 89c-3 5-8 9-14 9z"/>
<glyph glyph-name="favorite-bg" unicode="&#60;" d="M262 410l0 0m-6 20c-6 0-11-4-14-9l-44-89c-3-5-7-8-12-9l-98-14c-13-3-18-19-9-27l71-69c4-4 5-9 4-15l-16-96c-2-11 6-20 16-20 3 0 6 1 8 2l87 46c2 1 5 1 7 1 2 0 6-1 7-1l87-46c3-2 6-2 8-2 8 0 17 8 16 20l-17 96c-1 6 1 11 5 15l70 69c10 8 5 25-9 27l-97 14c-6 1-10 4-12 9l-44 89c-3 5-8 9-14 9z"/>
<glyph glyph-name="share" unicode="&#61;" d="M378 181c-16 0-32-8-42-20l-149 80c2 5 3 10 3 15 0 5-1 11-3 15l148 79c11-12 25-19 42-19 31 0 56 25 56 56 0 31-25 56-56 56-31 0-56-25-56-56 0-5 1-11 2-15l-147-79c-11 13-25 19-42 19-31 0-56-25-56-56 0-31 25-56 56-56 17 0 32 7 42 19l148-80c-2-5-2-10-2-14 0-31 25-56 56-56 32 0 56 25 56 56 0 31-24 56-56 56z m0 238c18 0 32-14 32-32 0-17-14-32-32-32-16 0-32 15-32 32 0 18 15 32 32 32z m-244-195c-17 0-32 14-32 32 0 18 14 32 32 32 17 0 32-14 32-32-1-17-16-32-32-32z m244-131c-17 0-32 14-32 32 0 17 14 32 32 32 19 0 32-15 32-32 0-17-14-32-32-32z"/>
<glyph glyph-name="share-bg" unicode="&#62;" d="M378 181c-16 0-32-8-42-20l-149 80c2 5 3 10 3 15 0 5-1 11-3 15l148 79c11-12 25-19 42-19 31 0 56 25 56 56 0 31-25 56-56 56-31 0-56-25-56-56 0-5 1-11 2-15l-147-79c-11 13-25 19-42 19-31 0-56-25-56-56 0-31 25-56 56-56 17 0 32 7 42 19l148-80c-2-5-2-10-2-14 0-31 25-56 56-56 32 0 56 25 56 56 0 31-24 56-56 56z"/>
<glyph glyph-name="setting" unicode="&#63;" d="M408 287c26 36 0 86-42 86-3 0-4 0-6 0-2 0-4 0-6 0-21 0-40 13-48 32-9 21-30 32-49 32-19 0-39-11-49-32-8-20-28-32-49-32-2 0-4 0-5 0-3 0-4 0-6 0-42 0-69-50-42-86 12-19 12-44 0-63-27-36 0-86 42-86 2 0 4 0 6 0 2 0 4 0 5 0 22 0 40-12 49-32 10-21 30-32 49-32 19 0 39 11 49 32 8 20 28 32 48 32 3 0 4 0 6 0 2 0 4 0 6 0 42 0 68 50 42 86-13 19-13 45 0 63z m-18-74c10-14 4-27 3-32-5-11-16-18-27-18-2 0-3 0-4 0-4 0-5 1-8 1-30 0-58-18-70-45-5-12-16-19-29-19-13 0-23 6-29 19-12 28-39 45-69 45-3 0-5 0-8-1-2 0-3 0-4 0-12 0-22 7-27 18-3 5-8 19 3 32 20 27 20 63 0 89-11 14-5 28-3 32 4 11 16 18 27 18 1 0 2 0 4 0 3 0 5-1 8-1 29 0 57 19 69 45 5 12 16 19 29 19 13 0 23-6 29-19 12-28 39-45 70-45 3 0 4 0 8 1 1 0 2 0 4 0 12 0 21-6 27-18 2-4 7-19-3-32-19-26-19-63 0-89z m-134 97c-30 0-53-24-53-52 0-30 24-53 53-53 30 0 53 24 53 53 0 28-23 52-53 52z m0-83c-17 0-30 13-30 30 0 17 13 29 30 29 17 0 30-12 30-29 0-17-13-30-30-30z"/>
<glyph glyph-name="setting-bg" unicode="&#64;" d="M408 287c26 36 0 86-42 86-3 0-4 0-6 0-2 0-4 0-6 0-21 0-40 13-48 32-9 21-30 32-49 32-19 0-39-11-49-32-8-20-28-32-49-32-2 0-4 0-5 0-3 0-4 0-6 0-42 0-69-50-42-86 12-19 12-44 0-63-27-36 0-86 42-86 2 0 4 0 6 0 2 0 4 0 5 0 22 0 40-12 49-32 10-21 30-32 49-32 19 0 39 11 49 32 8 20 28 32 48 32 3 0 4 0 6 0 2 0 4 0 6 0 42 0 68 50 42 86-13 19-13 45 0 63z m-152-60c-17 0-30 13-30 30 0 17 13 29 30 29 17 0 30-12 30-29 0-15-13-30-30-30z"/>
<glyph glyph-name="crown" unicode="&#91;" d="M105 362c0 8-7 15-15 15-9 0-16-7-16-15 0-8 7-16 16-16 8 0 15 8 15 16z m317 15c-8 0-16-7-16-15 0-8 7-16 16-16 8 0 15 7 15 16 0 8-7 15-15 15z m-166 0c8 0 15 6 15 15 0 9-6 16-15 16-9 0-15-6-15-15 0-9 7-16 15-16z m149-56c-5 0-11-3-15-7l-37-58c-3-5-9-7-15-7-4 0-10 2-14 7l-54 83c-4 5-8 7-14 7-6 0-10-2-14-7l-55-84c-3-5-9-7-14-7-5 0-11 2-15 7l-37 58c-3 5-9 7-15 7-8 0-17-6-17-18l25-172c3-15 16-26 31-26l219 0c15 0 29 12 30 26l26 173c2 11-6 18-15 18z m-31-186c-1-4-4-7-8-7l-220 0c-4 0-7 3-8 7l-20 144 22-36c7-12 20-18 33-18 13 0 25 6 33 18l50 76 50-76c7-12 20-18 32-18 13 0 26 6 33 18l23 36z"/>
<glyph glyph-name="crown-bg" unicode="&#93;" d="M105 362c0 8-7 15-15 15-9 0-16-7-16-15 0-8 7-16 16-16 8 0 15 8 15 16z m317 15c-8 0-16-7-16-15 0-8 7-16 16-16 8 0 15 7 15 16 0 8-7 15-15 15z m-166 0c8 0 15 6 15 15 0 9-6 16-15 16-9 0-15-6-15-15 0-9 7-16 15-16z m149-56c-5 0-11-3-15-7l-37-58c-3-5-9-7-15-7-4 0-10 2-14 7l-54 83c-4 5-8 7-14 7-6 0-10-2-14-7l-55-84c-3-5-9-7-14-7-5 0-11 2-15 7l-37 58c-3 5-9 7-15 7-8 0-17-6-17-18l25-172c3-15 16-26 31-26l219 0c15 0 29 12 30 26l26 173c2 11-6 18-15 18z"/>
<glyph glyph-name="zoom" unicode="&#94;" d="M334 438l-156 0c-57 0-104-47-104-104l0-156c0-57 47-104 104-104l156 0c57 0 104 47 104 104l0 156c0 57-47 104-104 104z m79-260c0-44-35-79-79-79l-156 0c-44 0-79 35-79 79l0 156c0 44 35 79 79 79l156 0c44 0 79-35 79-79 0 0 0-156 0-156z m-46 43c-6 0-12-5-13-13l0-34-45 46c-5 5-13 5-17 0-5-5-5-13 0-17l46-46-32 0c-7 0-12-5-13-13 0-6 5-12 13-13l62 1c3 0 8 3 10 5 1 2 1 7 1 12l0 59c1 7-5 12-12 13z m-222 70c6 0 12 5 13 13l0 34 45-46c5-5 13-5 17 0 5 5 5 13 0 17l-46 46 32 0c7 0 12 5 13 13 0 6-5 12-13 13l-62-2c-3 0-8-3-10-5-1-2-1-7-1-12l0-58c-1-7 5-12 12-13z m229 87c-2 1-7 1-12 1l-58 0c-6 0-12-5-13-13 0-6 5-12 13-12l34 0-46-46c-5-5-5-13 0-17 5-5 13-5 17 0l46 47 0-33c0-7 5-12 13-13 6 0 12 5 13 13l-1 62c-1 5-3 10-6 11z m-153-157c-5 5-13 5-17 0l-46-47 0 33c0 7-5 12-13 13-7 0-12-5-13-13l1-62c0-3 3-8 5-10 2-1 7-1 12-1l58 0c6 0 12 4 13 12 0 7-5 12-13 13l-34 0 46 46c5 3 5 11 1 16z"/>
<glyph glyph-name="zoom-bg" unicode="&#95;" d="M334 438l-156 0c-57 0-104-47-104-104l0-156c0-57 47-104 104-104l156 0c57 0 104 47 104 104l0 156c0 57-47 104-104 104z m-202-76c0 5 0 10 2 12 1 3 6 5 9 5l63 1c7-1 12-6 12-13 0-7-5-13-12-13l-33 0 46-46c5-5 5-13 0-17-5-5-13-5-17 0l-45 46 0-33c-1-7-6-13-13-13-7 1-13 6-13 13z m76-204c7-1 13-6 13-13-1-7-6-13-13-13l-58 0c-5 0-10 0-12 2-3 1-5 6-5 9l-1 63c1 7 6 12 13 12 7 0 13-5 13-12l0-33 46 46c5 5 13 5 17 0 5-5 5-13 0-17l-46-45z m172-8c0-5 0-10-2-12-1-3-6-5-9-5l-63-1c-7 1-12 6-12 13 0 7 5 13 12 13l33 0-46 46c-5 5-5 13 0 17 5 5 13 5 17 0l45-46 0 33c1 7 6 13 13 13 7-1 13-6 13-13z m-13 144c-7 0-13 5-13 12l0 33-46-46c-5-5-13-5-17 0-5 5-5 13 0 17l46 45-33 0c-7 1-13 6-13 13 1 7 6 13 13 13l58 0c5 0 10 0 12-2 3-1 5-6 5-9l1-63c-1-9-6-13-13-13z"/>
<glyph glyph-name="quote-right" unicode="&#96;" d="M77 146c0 11 6 20 16 24 25 12 42 28 52 49 1 3 2 6 3 9 6 17-7 34-25 34l-24 0c-14 0-25 11-25 25l0 80c0 15 11 26 25 26l93 0c14 0 26-11 26-26l0-80c0-49-12-89-36-118-18-22-41-38-70-48-17-7-34 6-34 24l0 1z m220 0c0 10 6 20 16 24 25 11 43 28 53 51 0 2 1 5 2 7 5 16-7 33-25 33l-24 0c-14 0-25 11-25 25l0 81c0 15 11 26 25 26l92 0c15 0 26-11 26-26l0-80c0-48-12-87-35-117-18-22-41-39-72-49-16-6-34 6-34 24l0 1z"/>
<glyph glyph-name="quote-left" unicode="&#123;" d="M435 366c0-11-6-20-16-24-25-12-42-28-52-49-1-3-2-6-3-9-6-17 7-34 25-34l24 0c14 0 25-11 25-25l0-81c0-14-11-26-25-26l-93 0c-14 0-26 12-26 26l0 80c0 49 12 89 36 118 18 22 41 38 70 48 17 7 34-6 34-24l0 0z m-220 0c0-10-6-20-16-24-25-11-43-28-53-51 0-2-1-5-2-7-5-16 7-33 25-33l24 0c14 0 25-11 25-25l0-81c0-15-11-26-25-26l-93 0c-14 0-26 11-26 26l0 80c0 48 12 87 36 117 17 22 40 39 71 49 17 6 34-6 34-24z"/>
<glyph glyph-name="camera" unicode="&#124;" d="M256 317c-22 0-42-9-57-23-14-15-23-35-23-57 0-23 9-43 23-57 15-14 35-23 57-23 22 0 42 9 57 23 14 14 23 34 23 57 0 22-9 42-23 57-15 14-35 23-57 23z m39-119c-9-10-24-16-39-16-15 0-29 6-39 16-10 9-16 24-16 39 0 15 6 29 16 39 9 10 24 16 39 16 15 0 30-6 39-16 10-10 16-24 16-39 0-15-6-29-16-39z m123 160c-12 12-28 19-46 19l-27 0c-3 8-7 16-14 21-10 10-25 16-36 16l-77 0c-11 0-25-6-36-16-6-6-11-13-13-21l-27 0c-19 0-35-7-47-19-12-12-19-28-19-47l0-147c0-18 7-34 19-46 12-12 28-20 47-20l232 0c17 0 34 8 46 20 12 12 19 28 19 46l0 146c-1 19-9 35-21 48z m-5-195c0-11-5-21-12-29-7-7-18-12-29-12l-232 0c-11 0-22 5-29 12-7 8-12 18-12 29l0 147c0 12 5 22 12 29 7 7 18 12 29 12l38 0c7 0 12 6 12 12 0 7 3 12 8 16 6 7 13 10 19 10l77 0c5 0 13-3 19-10 5-5 8-9 8-16 0-6 5-12 12-12l37 0c12 0 22-5 29-12 7-7 12-17 12-29l0-147z m-43 180l-22 0c-6 0-10-5-10-10l0-11c0-5 4-10 10-10l22 0c6 0 11 5 11 10l0 11c0 5-5 10-11 10z"/>
<glyph glyph-name="camera-bg" unicode="&#125;" d="M418 358c-12 12-28 19-46 19l-27 0c-3 8-7 16-14 21-10 10-25 16-36 16l-77 0c-11 0-25-6-36-16-6-6-11-13-13-21l-27 0c-19 0-35-7-47-19-12-12-19-28-19-47l0-147c0-18 7-34 19-46 12-12 28-20 47-20l232 0c17 0 34 8 46 20 12 12 19 28 19 46l0 146c-1 19-9 35-21 48z m-105-178c-15-14-35-23-57-23-22 0-42 9-57 23-14 14-23 34-23 57 0 22 9 42 23 57 15 14 35 23 57 23 22 0 42-9 57-23 14-15 23-35 23-57 0-22-9-42-23-57z m68 142c0-5-5-10-11-10l-22 0c-6 0-10 5-10 10l0 11c0 5 4 10 10 10l22 0c6 0 11-5 11-10z m-125-30c-15 0-29-6-39-16-10-10-16-24-16-39 0-15 6-30 16-39 9-10 24-16 39-16 15 0 30 6 39 16 10 9 16 24 16 39 0 15-6 29-16 39-9 10-24 16-39 16z"/>
<glyph glyph-name="link" unicode="&#126;" d="M242 224c5-6 6-15 0-22-5-5-15-6-21 0-4 3-7 7-11 10-3 4-6 8-8 13l0 1c-13 23-16 48-9 72 6 24 21 45 45 58l0 1 54 31c23 14 50 16 74 10 23-7 44-22 57-44 1-1 1-2 2-3 13-22 15-49 9-72-7-23-22-45-44-57-1-1-2-1-3-2l-15-9c-7-4-16-1-21 6-4 7-1 17 6 21l17 9c16 9 26 24 31 40 4 17 2 35-7 51-8 16-24 27-40 32-17 4-35 2-51-7l-53-31-1 0c-16-10-27-24-31-41-5-16-4-34 5-49l1-1c2-3 4-6 6-9 3-3 5-6 8-8z m28 64c-6 6-6 15 0 22 5 5 15 6 21 0 4-3 7-7 11-11l0-1c4-4 6-8 8-12l1 0c13-24 15-49 9-72-6-24-22-46-45-59l-54-31c-23-14-50-16-74-10-24 7-45 22-58 45l-2 1c-13 22-15 49-9 72 7 24 22 46 45 58l17 10c7 4 17 2 21-6 4-7 1-16-6-20l-17-10c-16-9-26-24-31-40-5-17-3-34 6-50l1 0c8-16 24-27 40-32 17-4 35-2 51 7l54 31c16 10 27 24 31 41 4 17 4 34-5 49l-2 2c-1 3-3 6-5 8l0 1c-3 2-5 5-8 7z"/>
<glyph glyph-name="link-bg" unicode="&#92;" d="M302 299c-3 3-8 9-12 12-2 3-6 6-9 7l-15-8c-10-6-16-15-19-25-2-10-2-21 3-29 2-3 7-10 9-13 15-16 18-40 3-57l0 0c-8-9-20-13-30-13-10 0-19 3-27 10-5 4-9 9-13 14-5 5-13 19-13 19-15 28-18 59-10 90 1 4 3 9 5 14l-52-30c-23-13-38-35-44-58-3-9-4-18-4-27 0-15 4-31 12-46 3-3 7-10 9-13 3-4 11-12 11-12 11-10 24-17 39-21 24-7 50-4 73 9l55 32c23 13 38 35 45 58 2 9 3 18 3 27 0 15-4 31-12 45-1 6-5 12-7 15z m124 54c-1 1-1 1-2 2-14 23-34 38-58 44-24 7-50 4-73-9l-54-32-1 0c-23-14-38-36-44-59-7-23-6-50 8-72 4-6 16-21 20-24 6-5 16-5 21 1 6 6 5 16-1 22-3 2-10 12-13 16-10 16-11 34-6 50 4 17 15 31 31 41l1 0 54 31c16 9 34 10 50 6 17-4 31-15 41-31 9-16 10-34 6-51-4-17-15-31-31-40l-17-10c-7-4-9-13-5-20 4-8 13-10 21-6l15 9c1 0 1 1 2 1 23 14 38 35 44 58 5 24 3 50-9 73z"/>
<glyph glyph-name="love" unicode="&#57344;" d="M394 386c-13 9-28 14-44 16-15 2-31 0-45-5-21-8-38-22-49-42-11 19-28 34-49 42-14 5-30 7-45 5-16-1-31-7-44-16-28-19-44-49-44-87 0-65 81-121 141-163 12-9 24-17 34-24 2-2 5-2 7-2 2 0 6 0 7 2 9 7 20 14 34 24 59 42 140 98 140 163 1 37-15 68-43 87z m-112-230c-9-6-18-13-26-19-9 6-18 13-26 19-55 38-130 90-130 142 0 29 12 52 33 67 9 6 21 10 32 12 3 0 5 1 9 1 8 0 17-2 24-5 24-9 39-28 45-55 1-4 5-8 10-9 3-1 6 0 9 1 4 2 5 5 6 8 6 28 22 47 45 56 10 4 22 5 33 4 12-2 23-6 32-12 21-15 33-38 33-67 1-52-73-105-129-143z m65 194c-8 0-14-6-14-14 0-8 6-14 14-14 8 0 15 6 15 14 0 8-7 14-15 14z"/>
<glyph glyph-name="love-bg" unicode="&#57345;" d="M394 386c-13 9-28 14-44 16-15 2-31 0-45-5-21-8-38-22-49-42-11 19-28 34-49 42-14 5-30 7-45 5-16-1-31-7-44-16-28-19-44-49-44-87 0-65 81-121 141-163 12-9 24-17 34-24 2-2 5-2 7-2 2 0 6 0 7 2 9 7 20 14 34 24 59 42 140 98 140 163 1 37-15 68-43 87z m-47-64c-8 0-14 6-14 14 0 8 6 14 14 14 8 0 15-6 15-14 0-8-7-14-15-14z"/>
<glyph glyph-name="sign-out" unicode="&#57346;" d="M345 144c-7 0-13-6-13-13 0-8-3-16-9-21-5-6-13-9-21-9l-152 0c-8 0-16 3-22 9-6 5-9 12-9 21l0 250c0 8 3 15 9 21 6 6 14 9 22 9l152 0c8 0 16-3 21-9 6-5 9-13 9-21 0-7 6-13 13-13 7 0 13 6 13 13 0 14-7 29-17 40-11 10-25 17-40 17l-152 0c-15 0-29-6-40-17-11-11-17-25-17-40l0-250c0-15 6-29 17-40 10-10 25-17 40-17l152 0c15 0 29 7 40 17 11 11 17 25 17 40 0 7-6 13-13 13z m70 122l-60 60c-5 5-13 5-19 0-6-6-6-14 0-20l37-36-179 0c-8 0-14-6-14-14 0-8 6-14 14-14l179 0-37-36c-6-6-6-14 0-20 6-5 14-5 19 0l60 60c6 6 6 14 0 20z"/>
<glyph glyph-name="sign-out-bg" unicode="&#57347;" d="M415 266l-60 60c-5 5-13 5-19 0-6-6-6-14 0-20l37-36-179 0c-8 0-14-6-14-14 0-8 6-14 14-14l179 0-37-36c-6-6-6-14 0-20 6-5 14-5 19 0l60 60c6 6 6 14 0 20z m-97-98c-14 14-16 34-6 49l-118 0c-22 0-40 17-40 39 0 22 18 39 40 39l118 0c-10 15-8 36 6 49 11 11 26 14 40 10 0 16 0 26 0 28 0 14-7 29-17 40-11 10-25 16-40 16l-152 0c-15 0-29-5-40-16-11-11-17-25-17-40l0-250c0-15 6-30 17-40 10-10 25-17 40-17l152 0c15 0 29 7 40 17 11 11 17 25 17 40 0 2 0 12 0 27-4-1-8-2-12-2-11 0-20 3-28 11z"/>
<glyph glyph-name="sign-in" unicode="&#57348;" d="M345 144c-7 0-13-6-13-13 0-8-3-16-9-21-5-6-13-9-21-9l-152 0c-8 0-16 3-22 9-6 5-9 12-9 21l0 250c0 8 3 15 9 21 6 6 14 9 22 9l152 0c8 0 16-3 21-9 6-5 9-13 9-21 0-7 6-13 13-13 7 0 13 6 13 13 0 14-7 29-17 40-11 10-25 17-40 17l-152 0c-15 0-29-6-40-17-11-11-17-25-17-40l0-250c0-15 6-29 17-40 10-10 25-17 40-17l152 0c15 0 29 7 40 17 11 11 17 25 17 40 0 7-6 13-13 13z m-161 122l60 60c6 5 14 5 19 0 6-6 6-14 0-20l-37-36 180 0c7 0 13-6 13-14 0-8-6-14-13-14l-180 0 37-36c6-6 6-14 0-20-5-5-13-5-19 0l-60 60c-6 6-6 14 0 20z"/>
<glyph glyph-name="sign-in-bg" unicode="&#57349;" d="M406 270l-180 0 37 36c6 6 6 14 0 20-5 5-13 5-19 0l-60-60c-6-6-6-14 0-20l60-60c6-5 14-5 19 0 6 6 6 14 0 20l-37 36 180 0c7 0 13 6 13 14 0 8-6 14-13 14z m-124-102c-8-7-18-11-28-11-11 0-20 4-28 11l-60 60c-8 7-12 18-12 28 0 10 4 20 12 28l60 60c7 7 17 11 28 11 10 0 20-4 28-11 13-14 15-34 5-49l71 0c0 46 0 83 0 86 0 14-7 29-17 40-11 10-25 17-40 17l-152 0c-15 0-29-6-40-17-11-11-17-25-17-40l0-250c0-15 6-29 17-40 10-10 25-17 40-17l152 0c15 0 29 7 40 17 11 11 17 25 17 40 0 3 0 41 0 86l-71 0c10-15 8-35-5-49z"/>
<glyph glyph-name="facebook" unicode="&#97;" d="M384 509l0-76-45 0c-17 0-28-3-33-10-6-7-9-17-9-31l0-54 84 0-11-85-73 0 0-216-87 0 0 216-73 0 0 85 73 0 0 62c0 36 10 63 29 83 20 19 47 29 80 29 28 0 49-1 65-3z"/>
<glyph glyph-name="twitter" unicode="&#98;" d="M481 395c-13-18-28-34-46-47 0-3 0-7 0-12 0-25-3-50-11-74-7-25-18-49-33-71-14-23-32-43-52-61-21-17-45-31-74-41-29-11-60-16-92-16-52 0-99 14-142 42 7-1 14-2 22-2 43 0 81 14 115 40-20 0-38 6-54 18-16 12-27 27-33 46 7-1 13-2 18-2 8 0 16 1 24 4-21 4-39 15-53 31-14 17-21 37-21 59l0 1c13-7 27-11 42-11-13 8-23 19-30 32-8 14-11 29-11 44 0 17 4 33 12 47 23-28 51-51 84-68 33-17 69-27 107-29-2 8-3 15-3 22 0 25 9 47 27 65 18 18 40 27 66 27 26 0 49-10 67-29 21 4 40 11 59 22-7-22-21-39-41-51 18 2 35 7 53 14z"/>
<glyph glyph-name="instagram" unicode="&#57350;" d="M369 509l-228 0c-78 0-141-63-141-140l0-228c0-78 63-141 141-141l228 0c77 0 140 63 140 141l0 228c0 77-63 140-140 140z m95-368c0-53-43-96-95-96l-228 0c-53 0-96 43-96 96l0 228c0 52 43 95 96 95l228 0c52 0 95-43 95-95z m-209 245c-73 0-132-59-132-131 0-73 59-132 132-132 72 0 131 59 131 132 0 72-59 131-131 131z m0-217c-48 0-86 38-86 86 0 47 38 86 86 86 47 0 86-39 86-86 0-48-39-86-86-86z m136 255c-8 0-17-3-23-10-6-6-10-14-10-23 0-9 4-17 10-23 6-7 15-10 23-10 9 0 18 3 24 10 6 6 9 14 9 23 0 9-3 17-9 23-6 7-15 10-24 10z"/>
<glyph glyph-name="linkedin" unicode="&#57351;" d="M136 333l0-283-94 0 0 283z m6 88c0-14-4-26-14-35-10-9-23-14-39-14l0 0c-16 0-29 5-38 14-10 9-14 21-14 35 0 14 4 26 14 35 10 9 23 14 39 14 16 0 28-5 38-14 9-9 14-21 14-35z m333-208l0-163-94 0 0 152c0 20-3 35-11 47-8 11-20 17-36 17-12 0-22-4-30-10-9-7-15-15-19-25-2-5-3-13-3-23l0-158-94 0c1 76 1 138 1 185 0 47 0 76 0 85l-1 13 94 0 0-41 0 0c4 6 7 12 11 16 4 5 10 10 17 15 6 5 15 10 24 13 10 3 21 4 33 4 33 0 59-11 79-32 20-22 29-54 29-95z"/>
<glyph glyph-name="youtube" unicode="&#57352;" d="M366 256c0 7-3 12-9 15l-146 92c-6 4-12 4-19 0-6-3-9-8-9-16l0-182c0-8 3-13 9-16 3-2 6-3 9-3 4 0 7 1 10 3l146 92c6 3 9 8 9 15z m146 0c0-18 0-33 0-43 0-10-1-23-3-39-1-16-3-30-6-42-3-14-10-26-20-35-10-10-22-15-35-17-43-4-106-7-192-7-86 0-149 3-192 7-13 2-25 7-35 17-10 9-17 21-20 35-3 12-5 26-6 42-2 16-3 29-3 39 0 10 0 25 0 43 0 18 0 33 0 43 0 10 1 23 3 39 1 16 3 30 6 42 3 14 10 26 20 35 10 10 22 15 35 17 43 4 106 7 192 7 86 0 149-3 192-7 13-2 25-7 35-17 10-9 17-21 20-35 3-12 5-26 6-42 2-16 3-29 3-39 0-10 0-25 0-43z"/>
<glyph glyph-name="refresh" unicode="&#57353;" d="M468 210c0-1 0-1 0-2-12-51-38-92-77-124-38-32-84-47-136-47-28 0-55 5-81 15-26 11-49 26-69 45l-37-37c-4-3-8-5-13-5-5 0-9 2-13 5-4 4-5 8-5 13l0 128c0 5 1 9 5 13 4 4 8 5 13 5l128 0c5 0 9-1 13-5 3-4 5-8 5-13 0-5-2-9-5-13l-39-39c13-12 28-22 46-29 17-7 35-10 53-10 26 0 49 6 71 18 23 13 40 30 54 51 2 4 7 15 15 34 1 4 4 6 8 6l55 0c3 0 5 0 7-2 1-2 2-4 2-7z m7 229l0-128c0-5-1-9-5-13-4-4-8-5-13-5l-128 0c-5 0-9 1-13 5-3 4-5 8-5 13 0 5 2 9 5 13l40 39c-28 26-62 39-100 39-26 0-49-6-71-18-23-13-40-30-54-51-2-4-7-15-15-34-1-4-4-6-8-6l-57 0c-3 0-5 0-7 2-1 2-2 4-2 7l0 2c12 51 38 92 77 124 39 32 85 47 137 47 28 0 55-5 81-15 26-11 50-26 70-45l37 37c4 3 8 5 13 5 5 0 9-2 13-5 4-4 5-8 5-13z"/>
<glyph glyph-name="eye" unicode="&#57354;" d="M256 399c31 0 62-4 91-12 29-9 53-20 72-32 19-13 36-26 51-40 14-13 25-25 32-36 7-11 10-18 10-23 0-5-3-12-10-23-7-10-18-22-32-36-15-14-32-27-51-40-19-12-43-23-72-32-29-8-60-12-91-12-31 0-62 4-91 12-29 9-53 20-72 32-19 13-36 26-51 40-14 14-25 26-32 36-7 11-10 18-10 23 0 5 3 12 10 23 7 11 18 23 32 36 15 14 32 27 51 40 19 12 43 23 72 32 29 8 60 12 91 12m0-253c31 0 58 11 80 33 23 21 34 47 34 77 0 31-11 57-34 78-22 22-49 33-80 33-31 0-58-11-80-33-23-21-34-47-34-78 0-30 11-56 34-77 22-22 49-33 80-33m0 110c3-3 9-3 19-1 10 2 18 4 26 6 7 1 11 0 12-5 0-15-5-28-17-38-11-11-24-16-40-16-16 0-29 5-40 16-11 10-16 23-16 38 0 16 5 29 16 39 11 11 24 16 40 16 5 0 6-4 5-11-1-8-3-16-6-25-3-8-2-14 1-19"/>
<glyph glyph-name="back-in-time" unicode="&#57355;" d="M288 466c58 0 107-21 148-62 40-40 61-90 61-148 0-58-21-108-61-148-41-41-90-62-148-62-47 0-90 15-129 45 0 0 36 39 36 39 28-20 59-31 93-31 43 0 80 16 110 46 31 31 46 68 46 111 0 44-15 81-46 112-30 30-67 46-110 46-43 0-79-15-109-44-31-30-47-66-48-108 0 0 73 0 73 0 0 0-94-105-94-105 0 0-95 105-95 105 0 0 64 0 64 0 1 57 22 105 63 145 40 39 89 59 146 59m-19-97c0 0 36 0 36 0 0 0 0-105 0-105 0 0 67-66 67-66 0 0-26-26-26-26 0 0-77 77-77 77 0 0 0 120 0 120"/>
<glyph glyph-name="whatsapp" unicode="&#57356;" d="M435 438c-48 48-112 74-179 74-141 0-256-115-256-256 0-45 13-90 35-128l-35-128 134 35c39-19 80-32 122-32 141 0 256 115 256 256 0 67-29 131-77 179z m-179-393c-38 0-77 9-109 29l-6 3-80-23 22 77-6 10c-23 35-32 73-32 112 0 115 96 211 211 211 58 0 109-22 150-61 42-41 61-93 61-150 0-112-93-208-211-208z m115 160c-6 3-38 19-45 19-6 3-9 3-12-3-4-7-16-19-20-26-3-3-6-3-12-3-7 3-26 10-52 32-19 16-32 38-35 45-3 6 0 9 3 13 4 3 7 6 10 9 3 3 3 7 6 10 4 3 0 6 0 9 0 4-12 36-19 48-3 10-9 10-13 10-3 0-6 0-12 0-4 0-10 0-16-6-7-7-23-23-23-55 0-32 23-61 26-67 3-3 45-70 109-96 54-22 64-16 76-16 13 0 39 16 42 29 6 16 6 29 3 29-3 16-9 16-16 19z"/>
<glyph glyph-name="code" unicode="&#57357;" d="M168 120c-6 0-12 2-17 7l-112 112c-9 9-9 25 0 34l112 112c9 9 25 9 34 0 9-9 9-25 0-34l-95-95 95-95c9-9 9-25 0-34-5-5-11-7-17-7z m176 0c6 0 12 2 17 7l112 112c9 9 9 25 0 34l-112 112c-9 9-25 9-34 0-9-9-9-25 0-34l95-95-95-95c-9-9-9-25 0-34 5-5 11-7 17-7z"/>
<glyph glyph-name="telegram" unicode="&#57358;" d="M392 26c7-5 16-6 24-3 8 3 14 10 15 18 19 87 64 308 81 387 1 6-1 12-6 16-5 4-11 5-17 3-89-33-365-137-477-178-8-3-12-10-12-17 0-8 5-14 13-17 50-15 116-36 116-36 0 0 31-93 48-141 2-6 6-10 12-12 7-2 13 0 18 4 26 25 66 63 66 63 0 0 76-56 119-87z m-235 185l36-118 8 75c0 0 138 125 217 196 3 2 3 5 1 8-2 2-5 3-8 1-91-58-254-162-254-162z"/>
</font>
</defs>
</svg>
